Aktuálny čas je Pia 31. Okt 2014 16:11:12

Všetky časy sú v GMT

Inzercia zadarmo

Posledné témy




Vytvoriť novú tému Odpovedať na tému  [ Príspevok: 1 ] 
Autor Správa
 Predmet príspevku: Jurský Park/Jurassic Park 1993 3D CZ HD
PoslaťNapísal: Štv 18. Apr 2013 15:15:29 
Offline
Nováčik
Nováčik

Registrovaný: Str 11. Júl 2012 11:53:59
Príspevky: 19
Jurassic.Park.1993.3D.1080p.Bluray.HSBS.X264-HDWinG

Screen
Obrázok

Odkaz
Kód:
http://www.csfd.cz/film/8644-jursky-park/


Sample
Kód:
http://share-rapid.com/stahuj/4241126/jurassic-park-1993-3d-1080p-bluray-hsbs-x264-hdwing-1-020.mkv
http://share-rapid.com/stahuj/4241125/jurassic-park-1993-3d-1080p-bluray-hsbs-x264-hdwing-1-019.mkv


Kvalita
Kód:
General
      Format : Matroska
      Format version : Version 2
      File size : 16.7 GiB
      Duration : 2h 6mn
      Overall bit rate mode : Variable
      Overall bit rate : 18.8 Mbps
      Encoded date : UTC 2013-04-17 08:08:59
      Writing application : mkvmerge v3.2.0 ('Beginnings') built on Feb 12 2010 16:46:17
      Writing library : libebml v0.7.9 + libmatroska v0.8.1
   Video #1
      ID : 1
      Format : AVC
      Format/Info : Advanced Video Codec
      Format profile : High@L4.1
      Format settings, CABAC : Yes
      Format settings, ReFrames : 4 frames
      Codec ID : V_MPEG4/ISO/AVC
      Duration : 2h 6mn
      Width : 1 920 pixels
      Height : 1 080 pixels
      Display aspect ratio : 16:9
      Frame rate mode : Constant
      Frame rate : 23.976 fps
      Color space : YUV
      Chroma subsampling : 4:2:0
      Bit depth : 8 bits
      Scan type : Progressive
      Title : Jurassic.Park.1993.3D.1080p.Bluray.HSBS.X264-HDWinG
      Writing library : x264 core 130 r2273 b3065e6
      Encoding settings : cabac=1 / ref=4 / deblock=1:-1:-1 / analyse=0x3:0x113 / me=umh / subme=10 / psy=1 / psy_rd=1.00:0.15 / mixed_ref=1 / me_range=32 / chroma_me=1 / trellis=2 / 8x8dct=1 / cqm=0 / deadzone=21,11 / fast_pskip=1 / chroma_qp_offset=-3 / threads=12 / lookahead_threads=1 / sliced_threads=0 / nr=0 / decimate=1 / interlaced=0 / bluray_compat=0 / constrained_intra=0 / bframes=6 / b_pyramid=2 / b_adapt=1 / b_bias=0 / direct=3 / weightb=1 / open_gop=0 / weightp=2 / keyint=250 / keyint_min=23 / scenecut=40 / intra_refresh=0 / rc_lookahead=40 / rc=crf / mbtree=1 / crf=17.0 / qcomp=0.60 / qpmin=10 / qpmax=69 / qpstep=4 / vbv_maxrate=40000 / vbv_bufsize=30000 / crf_max=0.0 / nal_hrd=none / ip_ratio=1.40 / aq=1:1.00
      Default : No
      Forced : No
   Audio #2
      ID : 2
      Format : DTS
      Format/Info : Digital Theater Systems
      Format profile : MA / Core
      Mode : 16
      Format settings, Endianness : Big
      Codec ID : A_DTS
      Duration : 2h 6mn
      Bit rate mode : Variable
      Bit rate : Unknown / 1 509 Kbps
      Channel(s) : 8 channels / 6 channels
      Channel positions : Front: L C R, Side: L R, Back: L R, LFE / Front: L C R, Side: L R, LFE
      Sampling rate : 48.0 KHz
      Bit depth : 24 bits
      Compression mode : Lossless / Lossy
      Delay relative to video : 2s 0ms
      Title : DTS EN 7.1
      Language : English
      Default : No
      Forced : No
   Audio #3
      ID : 3
      Format : DTS
      Format/Info : Digital Theater Systems
      Mode : 16
      Format settings, Endianness : Big
      Codec ID : A_DTS
      Duration : 2h 6mn
      Bit rate mode : Constant
      Bit rate : 1 509 Kbps
      Channel(s) : 6 channels
      Channel positions : Front: L C R, Side: L R, LFE
      Sampling rate : 48.0 KHz
      Bit depth : 24 bits
      Compression mode : Lossy
      Delay relative to video : 11ms
      Stream size : 1.34 GiB (8%)
      Title : DTS EN 5.1
      Language : English
      Default : No
      Forced : No
   Audio #4
      ID : 4
      Format : AC-3
      Format/Info : Audio Coding 3
      Mode extension : CM (complete main)
      Format settings, Endianness : Big
      Codec ID : A_AC3
      Duration : 2h 6mn
      Bit rate mode : Constant
      Bit rate : 448 Kbps
      Channel(s) : 6 channels
      Channel positions : Front: L C R, Side: L R, LFE
      Sampling rate : 48.0 KHz
      Bit depth : 16 bits
      Compression mode : Lossy
      Delay relative to video : 24s 0ms
      Stream size : 406 MiB (2%)
      Title : CZ
      Language : Czech
      Default : Yes
      Forced : No
   Text #5
      ID : 5
      Format : UTF-8
      Codec ID : S_TEXT/UTF8
      Codec ID/Info : UTF-8 Plain Text
      Title : CZ
      Language : Czech
      Default : No
      Forced : No
   Text #6
      ID : 6
      Format : UTF-8
      Codec ID : S_TEXT/UTF8
      Codec ID/Info : UTF-8 Plain Text
      Title : EN
      Language : English
      Default : No
      Forced : No



Download Share Rapid
Kód:
http://share-rapid.com/stahuj/4240953/jp3d-part19.rar
http://share-rapid.com/stahuj/4240946/jp3d-part18.rar
http://share-rapid.com/stahuj/4240941/jp3d-part17.rar
http://share-rapid.com/stahuj/4240934/jp3d-part16.rar
http://share-rapid.com/stahuj/4240929/jp3d-part15.rar
http://share-rapid.com/stahuj/4240921/jp3d-part14.rar
http://share-rapid.com/stahuj/4240917/jp3d-part13.rar
http://share-rapid.com/stahuj/4240915/jp3d-part12.rar
http://share-rapid.com/stahuj/4240901/jp3d-part11.rar
http://share-rapid.com/stahuj/4240898/jp3d-part10.rar
http://share-rapid.com/stahuj/4240892/jp3d-part09.rar
http://share-rapid.com/stahuj/4240889/jp3d-part08.rar
http://share-rapid.com/stahuj/4240886/jp3d-part07.rar
http://share-rapid.com/stahuj/4240883/jp3d-part06.rar
http://share-rapid.com/stahuj/4240881/jp3d-part05.rar
http://share-rapid.com/stahuj/4240878/jp3d-part04.rar
http://share-rapid.com/stahuj/4240875/jp3d-part03.rar
http://share-rapid.com/stahuj/4240870/jp3d-part02.rar
http://share-rapid.com/stahuj/4240866/jp3d-part01.rar


Bez hesla
Záznam na opravu dát

Stazeni / Download

Kod:


Hore
 Profil Poslať súkromnú správu  
 
Zobraziť príspevky z predchádzajúceho:  Zoradiť podľa  
Vytvoriť novú tému Odpovedať na tému  [ Príspevok: 1 ] 

Všetky časy sú v GMT


Kto je on-line

Registrovaní užívatelia: Bing [Bot], Exabot [Bot], Google [Bot]


Nemôžete zakladať nové témy v tomto fóre
Nemôžete odpovedať na témy v tomto fóre
Nemôžete upravovať svoje príspevky v tomto fóre
Nemôžete mazať svoje príspevky v tomto fóre

Skočiť na:  
Powered by phpBB © 2000, 2002, 2005, 2007 phpBB Group Kontakt: info@warezforum.sk
Zkuste online filmy zadarmo, nové filmy online. Stahujte data a filmy bez omezení! pro všechny. Nový internetový portál Filmy pro každého Vás uchvátí! Stahujte neomezeně filmy ke stažení zdarma a buďte In.