Aktuálny čas je Ned 20. Máj 2018 19:48:56

Všetky časy sú v GMT

Inzercia zadarmo

Posledné témy




Vytvoriť novú tému Odpovedať na tému  [ Príspevok: 1 ] 
Autor Správa
 Predmet príspevku: Pod kůží / Splinter (2008)
PoslaťNapísal: Ned 26. Feb 2012 7:51:24 
Offline
Generál
Generál

Registrovaný: Uto 22. Nov 2011 17:07:58
Príspevky: 1617
Pod kůží / Splinter ( 2008 ) DVD5 CZ,EN

Obrázok
CSFD
Kód:
http://www.csfd.cz/film/183077-pod-kuzi/

Citácia:
info

Horor / Drama / Thriller

USA, 2008, 82 min
Režie: Toby Wilkins
Hudba: Elia Cmiral
Hrají: Shea Whigham, Paulo Costanzo, Jill Wagner
Typ : DVD5
Bonusy : Nie
Menu : Nie
Jazyk : CZ,EN
Titulky : Nie

popis

Mladý pár se vydává do divočiny, kde chce strávit romantický víkend – výlet se ovšem rychle mění v noční můru, protože jejich auta se zmocní uprchlý trestanec a jeho přítelkyně. Nikdo z nesourodé čtveřice, kterou svedla dohromady náhoda, si ale nedokáže představit strašlivou hrůzu, která na ně čeká u zapadlé a opuštěné benzínové stanice.

media info

D:\POD KUZI-2008-CZ,EN-DVD5-jason24\VIDEO_TS\VTS_02_1.VOB
General
Complete name : D:\POD KUZI-2008-CZ,EN-DVD5-jason24\VIDEO_TS\VTS_02_1.VOB
Format : MPEG-PS
File size : 1 024 MiB
Duration : 22mn 16s
Overall bit rate : 6 426 Kbps

Video #224
ID : 224 (0xE0)
Format : MPEG Video
Format version : Version 2
Format profile : Main@Main
Format settings, Matrix : Default
Duration : 22mn 16s
Bit rate mode : Variable
Bit rate : 5 530 Kbps
Nominal bit rate : 8 568 Kbps
Width : 720 pixels
Height : 576 pixels
Display aspect ratio : 4:3
Frame rate : 25.000 fps
Standard : PAL
Colorimetry : 4:2:0
Scan type : Progressive
Bits/(Pixel*Frame) : 0.533
Stream size : 881 MiB (86%)

Audio #128
ID : 128 (0x80)
Format : AC-3
Format/Info : Audio Coding 3
Duration : 22mn 16s
Bit rate mode : Constant
Bit rate : 448 Kbps
Channel(s) : 6 channels
Language : English
Channel positions : Front: L C R, Surround: L R, LFE
Sampling rate : 48.0 KHz
Stream size : 71.4 MiB (7%)

Audio #129
ID : 129 (0x81)
Format : AC-3
Format/Info : Audio Coding 3
Duration : 22mn 16s
Bit rate mode : Constant
Bit rate : 192 Kbps
Channel(s) : 2 channels
Language : Czech
Channel positions : L R
Sampling rate : 48.0 KHz
Stream size : 30.6 MiB (3%)

Citácia:
download

Kód:
http://download.hellshare.sk/pod-kuzi-2008-cz-en-dvd5-jason24-part1-rar/5560654/
http://download.hellshare.sk/pod-kuzi-2008-cz-en-dvd5-jason24-part2-rar/5560702/
http://download.hellshare.sk/pod-kuzi-2008-cz-en-dvd5-jason24-part3-rar/5560727/
http://download.hellshare.sk/pod-kuzi-2008-cz-en-dvd5-jason24-part4-rar/5560743/

Citácia:
bez hesla

Stazeni / Download

Kod:


Hore
 Profil Poslať súkromnú správu  
 
Zobraziť príspevky z predchádzajúceho:  Zoradiť podľa  
Vytvoriť novú tému Odpovedať na tému  [ Príspevok: 1 ] 

Všetky časy sú v GMT


Kto je on-line

Registrovaní užívatelia: Bing [Bot], Google [Bot]


Nemôžete zakladať nové témy v tomto fóre
Nemôžete odpovedať na témy v tomto fóre
Nemôžete upravovať svoje príspevky v tomto fóre
Nemôžete mazať svoje príspevky v tomto fóre

Skočiť na:  
cron
Powered by phpBB © 2000, 2002, 2005, 2007 phpBB Group Kontakt: info@warezforum.sk
Zkuste online filmy zadarmo, nové filmy online. Stahujte data a filmy bez omezení! pro všechny. Nový internetový portál Filmy pro každého Vás uchvátí! Stahujte neomezeně filmy ke stažení zdarma a buďte In.