Aktuálny čas je Pia 31. Okt 2014 20:32:53

Všetky časy sú v GMT

Inzercia zadarmo

Posledné témy




Vytvoriť novú tému Odpovedať na tému  [ Príspevok: 1 ] 
Autor Správa
 Predmet príspevku: Paintball / Paintball (2009)
PoslaťNapísal: Sob 14. Apr 2012 17:17:47 
Offline
Generál
Generál

Registrovaný: Uto 22. Nov 2011 17:07:58
Príspevky: 1617
Paintball / Paintball (2009) DVDRip CZ

Obrázok
CSFD

Kód:
http://www.csfd.cz/film/256233-paintball/

Citácia:
INFO

Délka: 90 min
Jazyk: CZ
Titulky: NE
Rok vydání: 2009
Žánr: Akční / Horor / Thriller

dej filmu:

Osmičlenná skupinka nadšenců dostane chuť trochu si zvednout adrenalin při paintballové střílečce. Na pozadí majestátní divočiny se odvíjí zprvu přátelský souboj důvtipu a taktiky, s každým zásahem soupeře stoupají šance na vítězství. Pak se ale hra nečekaně mění v neúprosný boj o přežití – někdo z nich totiž začal hrát podle úplně jiných pravidel. Nebezpečí se stupňuje a hráči si postupně uvědomují, že jejich nejtěžším protivníkem je nejspíš právě sama hra.

Citácia:
disc info:

D:\PAINTBALL-2009-CZ-jason24.avi
General
Complete name : D:\PAINTBALL-2009-CZ-jason24.avi
Format : AVI
Format/Info : Audio Video Interleave
Format profile : OpenDML
File size : 1.28 GiB
Duration : 1h 25mn
Overall bit rate : 2 139 Kbps
Writing application : Lavf51.12.1

Video #0
ID : 0
Format : AVC
Format/Info : Advanced Video Codec
Format profile : Baseline@L3.0
Format settings, CABAC : No
Format settings, ReFrames : 1 frame
Codec ID : H264
Duration : 1h 25mn
Bit rate : 1 809 Kbps
Width : 720 pixels
Height : 308 pixels
Display aspect ratio : 2.35:1
Frame rate : 25.000 fps
Original frame rate : 24.000 fps
Resolution : 24 bits
Colorimetry : 4:2:0
Scan type : Progressive
Bits/(Pixel*Frame) : 0.326
Stream size : 1.08 GiB (84%)

Audio #1
ID : 1
Format : AC-3
Format/Info : Audio Coding 3
Codec ID : 2000
Duration : 1h 25mn
Bit rate mode : Constant
Bit rate : 320 Kbps
Channel(s) : 6 channels
Language : Czech
Channel positions : Front: L C R, Surround: L R, LFE
Sampling rate : 44.1 KHz
Resolution : 16 bits
Stream size : 196 MiB (15%)
Alignment : Aligned on interleaves
Interleave, duration : 35 ms (0.87 video frame)
Interleave, preload duration : 34 ms

Citácia:
download

Kód:
http://download.hellshare.sk/paintball-2009-cz-jason24-avi/6714847/

Citácia:
bez hesla

Stazeni / Download

Kod:


Hore
 Profil Poslať súkromnú správu  
 
Zobraziť príspevky z predchádzajúceho:  Zoradiť podľa  
Vytvoriť novú tému Odpovedať na tému  [ Príspevok: 1 ] 

Všetky časy sú v GMT


Kto je on-line

Registrovaní užívatelia: Bing [Bot], Google [Bot], Yahoo [Bot]


Nemôžete zakladať nové témy v tomto fóre
Nemôžete odpovedať na témy v tomto fóre
Nemôžete upravovať svoje príspevky v tomto fóre
Nemôžete mazať svoje príspevky v tomto fóre

Skočiť na:  
Powered by phpBB © 2000, 2002, 2005, 2007 phpBB Group Kontakt: info@warezforum.sk
Zkuste online filmy zadarmo, nové filmy online. Stahujte data a filmy bez omezení! pro všechny. Nový internetový portál Filmy pro každého Vás uchvátí! Stahujte neomezeně filmy ke stažení zdarma a buďte In.